Шаблон оформления раздачи в Фильмах

Ответить на тему
 
Автор Сообщение

Husk0440 ®

Пол: Мужской

Стаж: 5 месяца 29 дня

Сообщений: 73

Откуда: от верблюда

Создавать темы 13-Июн-2020 00:22

[Цитировать]

Перед тем как приступать, ознакомьтесь с правилами раздела-Название топика:
Лицо со шрамом / Капоне / Capone (Джош Транк / Josh Trank) [2020, Канада, США, драма, биография, криминал, BDRip] (HDRezka Studio)

Порядок написания заголовка

1. Название Фильма на Русском Языке (если присутствует два варианта названия, писать оба)
2. Название Фильма а на Языке Оригинала
3. Имя и Фамилия режиссёра[ов] (на русском)
4. Имя и Фамилия режиссёра[ов] (на языке оригинала)
5. Год[а] выпуска фильма
6. Страна[ы]
7. Жанр фильма (хотя бы один)
8. Контейнер / качество материала
9. Дополнительная информация по релизу (опционально)
-Оформление темы:
1.Лицо со шрамом / Капоне / Capone
2. Год выпуска: 2020
3. Страна: США, Канада
Жанр: драма, биография, криминал
Как найти информацию о фильме? - Можно воспользоваться поисковиками или найти в других форумах!
4. Продолжительность: ~ 22 мин.
О том как получить информацию по видео файлу можно узнать тут
5. Перевод: Профессиональный (многоголосый закадровый) HDRezka Studio
О переводах тут
6. Русские субтитры: Есть
7. Режиссер: Джош Транк / Josh Trank
8. В ролях: Том Харди, Линда Карделлини, Ноэль Фишер, Кайл МакЛахлан, Мэтт Диллон, Кэтрин Нардуччи, Джек Лауден, Ал Сапиенза, Тильда Дель Торо, Уэйн Пер, Роуз Бьянко, Мэнни Фахардо, Эдгар Арреола, Дэвид Уочс, Джош Транк-9. Описание:
Описание темы должно быть на русском языке!
Вернувшись из тюрьмы, Аль Капоне продолжает оставаться предметом пристального внимания ФБР. Ведь при аресте так и не была найдена крупная сумма денег — итог всей криминальной деятельности знаменитого мафиози. По всему дому расставлены жучки, под подозрением каждый член большой семьи Капоне. Удастся ли спецслужбам добиться от теряющего память гангстера информации, где и при каких обстоятельствах он спрятал деньги?-10. Качество: BDRip
11. Формат: MKV
12. Видео: 1280x536 (2.4:1), 24 fps, 4681 kbps, 0.285 bit/pixel
13. Аудио: Русский, 48 kHz, 6 ch, 448 kbps - MVO | HDRezka Studio
Аудио 2: Английский 48 kHz, 6 ch, 448 kbps - Оригинал
О том как получить информацию по видео файлу можно узнать тут
14. Субтитры: Русские (форсированные), Русские, Английские
15.

Отчет Media Info (Необходимо вынести в код)

General
Unique ID                   : 198083061280407988611269101690088885149 (0x950568F07D62CC6698490CD762608B9D)
Complete name               : D:\Downloads\Video\3\liso.so.shramom.2020.mkv
Format                      : Matroska
Format version              : Version 4
File size                   : 4.04 GiB
Duration                    : 1 h 43 min
Overall bit rate            : 5 566 kb/s
Encoded date                : UTC 2020-06-09 13:59:01
Writing application         : mkvmerge v6.1.0 ('Old Devil') built on Mar  2 2013 14:32:37
Writing library             : libebml v1.3.0 + libmatroska v1.4.0
Cover                       : Yes
Attachments                 : cover.jpg
Video
ID                          : 1
Format                      : AVC
Format/Info                 : Advanced Video Codec
Format profile              : High@L4.1
Format settings             : CABAC / 12 Ref Frames
Format settings, CABAC      : Yes
Format settings, ReFrames   : 12 frames
Codec ID                    : V_MPEG4/ISO/AVC
Duration                    : 1 h 43 min
Bit rate                    : 4 681 kb/s
Width                       : 1 280 pixels
Height                      : 536 pixels
Display aspect ratio        : 2.40:1
Frame rate mode             : Constant
Frame rate                  : 23.976 (24000/1001) FPS
Color space                 : YUV
Chroma subsampling          : 4:2:0
Bit depth                   : 8 bits
Scan type                   : Progressive
Bits/(Pixel*Frame)          : 0.285
Stream size                 : 3.31 GiB (82%)
Writing library             : x264 core 160 r3000 33f9e14
Encoding settings           : cabac=1 / ref=12 / deblock=1:-3:-3 / analyse=0x3:0x133 / me=umh / subme=11 / psy=1 / psy_rd=1.00:0.00 / mixed_ref=1 / me_range=32 / chroma_me=1 / trellis=2 / 8x8dct=1 / cqm=0 / deadzone=21,11 / fast_pskip=0 / chroma_qp_offset=-2 / threads=12 / lookahead_threads=4 / sliced_threads=0 / nr=0 / decimate=0 / interlaced=0 / bluray_compat=0 / constrained_intra=0 / bframes=12 / b_pyramid=2 / b_adapt=2 / b_bias=0 / direct=3 / weightb=1 / open_gop=0 / weightp=2 / keyint=240 / keyint_min=23 / scenecut=40 / intra_refresh=0 / rc=2pass / mbtree=0 / bitrate=4681 / ratetol=1.0 / qcomp=0.65 / qpmin=0 / qpmax=69 / qpstep=4 / cplxblur=20.0 / qblur=0.5 / ip_ratio=1.25 / pb_ratio=1.30 / aq=2:0.80
Language                    : English
Default                     : Yes
Forced                      : No
Color range                 : Limited
Color primaries             : BT.709
Transfer characteristics    : BT.709
Matrix coefficients         : BT.709
Audio #1
ID                          : 2
Format                      : AC-3
Format/Info                 : Audio Coding 3
Commercial name             : Dolby Digital
Codec ID                    : A_AC3
Duration                    : 1 h 43 min
Bit rate mode               : Constant
Bit rate                    : 448 kb/s
Channel(s)                  : 6 channels
Channel layout              : L R C LFE Ls Rs
Sampling rate               : 48.0 kHz
Frame rate                  : 31.250 FPS (1536 SPF)
Bit depth                   : 16 bits
Compression mode            : Lossy
Stream size                 : 333 MiB (8%)
Title                       : MVO | HDRezka Studio
Language                    : Russian
Service kind                : Complete Main
Default                     : Yes
Forced                      : Yes
Audio #2
ID                          : 3
Format                      : AC-3
Format/Info                 : Audio Coding 3
Commercial name             : Dolby Digital
Codec ID                    : A_AC3
Duration                    : 1 h 43 min
Bit rate mode               : Constant
Bit rate                    : 448 kb/s
Channel(s)                  : 6 channels
Channel layout              : L R C LFE Ls Rs
Sampling rate               : 48.0 kHz
Frame rate                  : 31.250 FPS (1536 SPF)
Bit depth                   : 16 bits
Compression mode            : Lossy
Stream size                 : 333 MiB (8%)
Title                       : Original
Language                    : English
Service kind                : Complete Main
Default                     : No
Forced                      : No
Text #1
ID                          : 4
Format                      : UTF-8
Codec ID                    : S_TEXT/UTF8
Codec ID/Info               : UTF-8 Plain Text
Title                       : forced
Language                    : Russian
Default                     : No
Forced                      : Yes
Text #2
ID                          : 5
Format                      : UTF-8
Codec ID                    : S_TEXT/UTF8
Codec ID/Info               : UTF-8 Plain Text
Title                       : Focs
Language                    : Russian
Default                     : No
Forced                      : No
Text #3
ID                          : 6
Format                      : UTF-8
Codec ID                    : S_TEXT/UTF8
Codec ID/Info               : UTF-8 Plain Text
Language                    : English
Default                     : No
Forced                      : No
Menu
00:00:00.000                : :Chapter 01
00:12:44.054                : :Chapter 02
00:31:39.564                : :Chapter 03
00:55:52.515                : :Chapter 04
01:17:14.129                : :Chapter 05
01:32:59.031                : :Chapter 06
16.

Скриншоты

-О скриншотах
О том, как залить картинки на хост
[Профиль] [ЛС]

Husk0440 ®

Пол: Мужской

Стаж: 5 месяца 29 дня

Сообщений: 73

Откуда: от верблюда

Создавать темы 13-Июн-2020 00:22 (спустя 16 секунды)

[Цитировать]

Вот пример шаблона, копируйте и заполняйте поля:

[img=right]СЫЛКА НА КАРТИНКУ[/img]
[align=center][Size=20][b]ЗАГОЛОВОК[/b][/size][/align]
[hr]
[size=14][b][u]Год выпуска[/u][/b]: [/size]
[size=14][b][u]Страна[/u][/b]: [/size]
[size=14][b][u]Жанр[/u][/b]: [/size]
[size=14][b][u]Продолжительность[/u][/b]: [/size]
[size=14][b][u]Перевод[/u][/b]: [/size]
[size=14][b][u]Русские субтитры[/u][/b]: [/size]
[size=14][b][u]Режиссер[/u][/b]: [/size]
[size=14][b][u]В ролях[/u][/b]: [/size]
[hr]
[size=18][b][u]Описание:[/u][/b][/size]
[i]...[/i]
[hr]
[size=14][b][u]Качество[/u][/b]: [/size]
[size=14][b][u]Формат[/u][/b]: [/size]
[size=14][b][u]Видео[/u][/b]: [/size]
[size=14][b][u]Аудио[/u][/b]:  [/size]
[size=14][b][u]Аудио 2[/u][/b]: [/size]
[size=14][b][u]Субтитры[/u][/b]: [/size]
[hr]
[spoiler="Отчет Media Info"]
[codе] [/codе] (в обоих code заменить русскую "е" на англ.)
[/spoiler]
[spoiler="Скриншоты"]
...
[/spoiler]
[Профиль] [ЛС]
Показать сообщения:    
Ответить на тему

Текущее время: 30-Ноя 06:28

Часовой пояс: UTC + 5



Вы не можете начинать темы
Вы не можете отвечать на сообщения
Вы не можете редактировать свои сообщения
Вы не можете удалять свои сообщения
Вы не можете голосовать в опросах
Вы не можете прикреплять файлы к сообщениям
Вы не можете скачивать файлы